منتدى العطاري
مرحبا بك عزيزي الزائر. المرجو منك أن تعرّف نفسك و تدخل المنتدى معنا.

إن لم يكن لديك حساب بعد, نتشرف بدعوتك لإنشائه وسنسعد بذلك فى منتديات العطاري




نورتوا المنتدى
يسعدنا أن تنضم إلى أسرتنا بالتسجيل
للتسجيل فى مـنـتـديــات العطاري
و إذا كنت مسجل لدينا لا تبخل علينا بالدخول

منتدى العطاري

 
الرئيسيةالبوابةاليوميةمكتبة الصورس .و .جبحـثالأعضاءالمجموعاتالتسجيلدخول

شاطر | 
 

 حصريا مسرحيا آه يادرب الزلق بمساحة 1 جيجا نسخه اصليه وعلى سيفرين على منتدى العطاري

استعرض الموضوع السابق استعرض الموضوع التالي اذهب الى الأسفل 
كاتب الموضوعرسالة
عطاري و بس
المدير العام
المدير العام
avatar

عطاري و بس (المدير العام)
كيف تعرفت علينا ؟؟؟؟؟؟ : احلى منتدى


ذكر
كلمه للاقصى الجريح : اللهم حرر المسجد الأقصى من دنس اليهود
رقم العضوية : 5
عدد المساهمات : 3286
النشاط : 42
تاريخ التسجيل : 29/05/2009
العمر : 23
الموقع : حاره تع بورد (ترحب بكم)
العمل/الترفيه : صاحب بوتيك

مُساهمةموضوع: حصريا مسرحيا آه يادرب الزلق بمساحة 1 جيجا نسخه اصليه وعلى سيفرين على منتدى العطاري   الأربعاء فبراير 24, 2010 12:37 pm





آه يادرب الزلق



صور الجوده









بطــولـــة
طارق العلي
سعد بخيت
هيا الشعيبي
عباس مراد

General
Complete name : Ah Ya Darb Alzalag\Ah.Ya.Darb.Alzalag.mR.enZO.avi
Format : AVI
Format/Info : Audio Video Interleave
File size : 1.03 GiB
Duration : 4h 20mn
Overal bit rate : 565 Kbps
Writing library : VirtualDub-MPEG2 build 24586/release

Video
Format : MPEG-4 Visual
Format settings, BVOP : Yes
Format settings, QPel : No
Format settings, GMC : No warpoints
Format settings, Matrix : Default
Muxing mode : Packet Bitstream
Codec ID : DX50
Codec ID/Hint : DivX 5
Duration : 4h 20mn
Bit rate : 507 Kbps
Width : 512 pixels
Height : 384 pixels
Display aspect ratio : 4/3
Frame rate : 25.000 fps
Resolution : 8 bits
Colorimetry : 4:2:0
Scan type : Progressive
Bits/(Pixel*Frame) : 0.103
Stream size : 945 MiB
Writing library : DivX 2676

Audio
Format : MPEG Audio
Format version : Version 2
Format profile : Layer 3
Codec ID : 55
Codec ID/Hint : MP3
Duration : 4h 20mn
Bit rate mode : Constant
Bit rate : 48.0 Kbps
Channel(s) : 2 channels
Sampling rate : 22.05 KHz
Resolution : 16 bits
Stream size : 89.0 MiB





http://bitroad.net/download/aa3360206814/Ah.Ya.Darb.Alzalag.By.elgamalhosam.part1.rar.html

http://bitroad.net/download/2a5a13321832/Ah.Ya.Darb.Alzalag.By.elgamalhosam.part2.rar.html

http://bitroad.net/download/0531e0622609/Ah.Ya.Darb.Alzalag.By.elgamalhosam.part3.rar.html

http://bitroad.net/download/25198a51542/Ah.Ya.Darb.Alzalag.By.elgamalhosam.part4.rar.html

http://bitroad.net/download/59e1f2491283/Ah.Ya.Darb.Alzalag.By.elgamalhosam.part5.rar.html

http://bitroad.net/download/e6b929168654/Ah.Ya.Darb.Alzalag.By.elgamalhosam.part6.rar.html





http://rapidshare.com/files/227361797/Ah.Ya.Darb.Alzalag.By.elgamalhosam.part1.rar

http://rapidshare.com/files/227361636/Ah.Ya.Darb.Alzalag.By.elgamalhosam.part2.rar

http://rapidshare.com/files/227361683/Ah.Ya.Darb.Alzalag.By.elgamalhosam.part3.rar

http://rapidshare.com/files/227361731/Ah.Ya.Darb.Alzalag.By.elgamalhosam.part4.rar

http://rapidshare.com/files/227361621/Ah.Ya.Darb.Alzalag.By.elgamalhosam.part5.rar

http://rapidshare.com/files/227361469/Ah.Ya.Darb.Alzalag.By.elgamalhosam.part6.rar



استعمل برنامج: Download Manager 5.18

http://forum.panet.co.il/showthread.php?t=6050


ليتم التحميل من الموقع


ولفك الضغط استعمل برنامج: WinRAR 3.91

http://forum.panet.co.il/showthread.php?t=5294


:ihue:

$$$$$$$$$$$$$ منتـــــــــــدى الـــــــعـــــطــــاري $$$$$$$$$$$$$









يا جماعه شوفو الفائده من عمل المواضيع

لما تكتب هتحرك صوابعك وبالتالي هتنشط الدوره الدمويه بيها

يعني ايدك مش هتصاب بشلل مبكر

يلا يا شباب و يا صبايا الكل يروح يعمل مواضيع بسرعه[img]
الرجوع الى أعلى الصفحة اذهب الى الأسفل
http://atary1.nojoumarab.net/
 
حصريا مسرحيا آه يادرب الزلق بمساحة 1 جيجا نسخه اصليه وعلى سيفرين على منتدى العطاري
استعرض الموضوع السابق استعرض الموضوع التالي الرجوع الى أعلى الصفحة 
صفحة 1 من اصل 1

صلاحيات هذا المنتدى:لاتستطيع الرد على المواضيع في هذا المنتدى
منتدى العطاري  :: تحميل الافلام واخبارها :: تحميل مسرحيات عربية,تحميل مسرحيات مجانا,تحميل مسرحيات مصرية جديدة وقديمة-
انتقل الى: